[美国][科幻][绿巨人浩克][2160p.BluRay.REMUX.HEVC.DTS-X.7.1/76.28 GB][英语外文] 00年代 欧美 动作 科幻 REMUX

mfxz 6天前 23


导演: 李安

编剧: 詹姆斯·夏慕斯 / 约翰·特曼 / 迈克尔·弗朗斯 / 杰克·科比 / 斯坦·李

主演: 艾瑞克·巴纳 / 詹妮弗·康纳利 / 山姆·艾里奥特 / 乔什·卢卡斯 / 尼克·诺特

类型: 剧情 / 动作 / 科幻

制片国家/地区: 美国

语言: 英语 / 西班牙语

上映日期: 2003-10-10(中国大陆) / 2003-06-20(美国)

片长: 138分钟

又名: 变形侠医(港) / 绿巨人 / The Hulk

IMDb链接: tt0286716


绿巨人浩克的剧情简介 · · · · · ·

  冷战时期,布鲁斯·班纳(艾瑞克·巴纳 Eric Bana 饰)的父亲是美军的一位科学家,致力于研究通过基因改造让人类获得超强的能力,想以此为美军打造超级士兵。可是他的项目没有获得美军的支持,不能进行人体试验,疯狂的父亲为了完成试验就在刚出生的班纳身上进行基因试验。多年后,班纳成为了出色的科学家,专职为军方开发新型的高能炸弹。在一次例行的试验中,由于操作失误,班纳为了保护同事,受到了一场伽马射线的强力辐射。常人如果在这场射线爆炸下肯定必死无疑,可是班纳却活了下来。多年前,父亲在其身上做的试验也因这场核辐射生效。一旦班纳发怒时,就会诱发身体里的神秘力量,变为毫无意识的绿巨人,拥有超强的破坏力和反抗意识。因此,美国军方为了深入研究,开始围追堵截绿巨人……





Video
ID : 1
Format : HEVC
Format/Info : High Efficiency Video Coding
Commercial name : HDR10
Format profile : Main 10@L5.1@High
Codec ID : V_MPEGH/ISO/HEVC
Duration : 2 h 18 min
Bit rate : 70.7 Mb/s
Width : 3 840 pixels
Height : 2 160 pixels
Display aspect ratio : 16:9
Frame rate mode : Constant
Frame rate : 23.976 (24000/1001) FPS
Color space : YUV
Chroma subsampling : 4:2:0 (Type 2)
Bit depth : 10 bits
Bits/(Pixel*Frame) : 0.356
Stream size : 68.2 GiB (89%)
Title : Hulk.2003.2160p.BluRay.REMUX.HEVC.DTS-X.7.1-FGT
Writing library : ATEME Titan File 3.9.0 (4.9.0.0) 
Language : English
Default : No
Forced : No
Color range : Limited
Color primaries : BT.2020
Transfer characteristics : PQ
Matrix coefficients : BT.2020 non-constant
Mastering display color primaries : Display P3
Mastering display luminance : min: 0.0050 cd/m2, max: 1000 cd/m2
Maximum Content Light Level : 1000 cd/m2
Maximum Frame-Average Light Level : 270 cd/m2

Audio #1
ID : 2
Format : DTS XLL X
Format/Info : Digital Theater Systems
Commercial name : DTS-HD Master Audio
Codec ID : A_DTS
Duration : 2 h 18 min
Bit rate mode : Variable
Bit rate : 5 015 kb/s
Channel(s) : 8 channels
Channel(s)_Original : Object Based
Channel layout : Object Based
Sampling rate : 48.0 kHz
Frame rate : 93.750 FPS (512 SPF)
Bit depth : 24 bits
Stream size : 4.84 GiB (6%)
Title : Hulk.2003.2160p.BluRay.REMUX.HEVC.DTS-X.7.1-FGT
Language : English
Default : Yes
Forced : No

Audio #2
ID : 3
Format : DTS
Format/Info : Digital Theater Systems
Codec ID : A_DTS
Duration : 2 h 18 min
Bit rate mode : Constant
Bit rate : 768 kb/s
Channel(s) : 6 channels
Channel layout : C L R Ls Rs LFE
Sampling rate : 48.0 kHz
Frame rate : 93.750 FPS (512 SPF)
Bit depth : 24 bits
Compression mode : Lossy
Stream size : 759 MiB (1%)
Title : Hulk.2003.2160p.BluRay.REMUX.HEVC.DTS-X.7.1-FGT
Language : French
Default : No
Forced : No

Audio #3
ID : 4
Format : DTS
Format/Info : Digital Theater Systems
Codec ID : A_DTS
Duration : 2 h 18 min
Bit rate mode : Constant
Bit rate : 768 kb/s
Channel(s) : 6 channels
Channel layout : C L R Ls Rs LFE
Sampling rate : 48.0 kHz
Frame rate : 93.750 FPS (512 SPF)
Bit depth : 24 bits
Compression mode : Lossy
Stream size : 759 MiB (1%)
Title : Hulk.2003.2160p.BluRay.REMUX.HEVC.DTS-X.7.1-FGT
Language : Spanish
Default : No
Forced : No

Audio #4
ID : 5
Format : DTS
Format/Info : Digital Theater Systems
Codec ID : A_DTS
Duration : 2 h 18 min
Bit rate mode : Constant
Bit rate : 768 kb/s
Channel(s) : 6 channels
Channel layout : C L R Ls Rs LFE
Sampling rate : 48.0 kHz
Frame rate : 93.750 FPS (512 SPF)
Bit depth : 24 bits
Compression mode : Lossy
Stream size : 759 MiB (1%)
Title : Hulk.2003.2160p.BluRay.REMUX.HEVC.DTS-X.7.1-FGT
Language : Japanese
Default : No
Forced : No

Audio #5
ID : 6
Format : DTS
Format/Info : Digital Theater Systems
Codec ID : A_DTS
Duration : 2 h 18 min
Bit rate mode : Constant
Bit rate : 768 kb/s
Channel(s) : 6 channels
Channel layout : C L R Ls Rs LFE
Sampling rate : 48.0 kHz
Frame rate : 93.750 FPS (512 SPF)
Bit depth : 24 bits
Compression mode : Lossy
Stream size : 759 MiB (1%)
Title : Hulk.2003.2160p.BluRay.REMUX.HEVC.DTS-X.7.1-FGT
Language : Portuguese
Default : No
Forced : No

Audio #6
ID : 7
Format : AC-3
Format/Info : Audio Coding 3
Commercial name : Dolby Digital
Codec ID : A_AC3
Duration : 2 h 18 min
Bit rate mode : Constant
Bit rate : 192 kb/s
Channel(s) : 2 channels
Channel layout : L R
Sampling rate : 48.0 kHz
Frame rate : 31.250 FPS (1536 SPF)
Bit depth : 16 bits
Compression mode : Lossy
Stream size : 190 MiB (0%)
Title : Hulk.2003.2160p.BluRay.REMUX.HEVC.DTS-X.7.1-FGT
Language : English
Service kind : Complete Main
Default : No
Forced : No

Text #1
ID : 8
Format : UTF-8
Codec ID : S_TEXT/UTF8
Codec ID/Info : UTF-8 Plain Text
Duration : 2 h 6 min
Bit rate : 35 b/s
Count of elements : 1006
Stream size : 32.7 KiB (0%)
Title : English-SRT
Language : English
Default : Yes
Forced : No

Text #2
ID : 9
Format : UTF-8
Codec ID : S_TEXT/UTF8
Codec ID/Info : UTF-8 Plain Text
Duration : 2 h 8 min
Bit rate : 37 b/s
Count of elements : 1186
Stream size : 35.4 KiB (0%)
Title : English-SDH-SRT
Language : English
Default : No
Forced : No

Text #3
ID : 10
Format : PGS
Muxing mode : zlib
Codec ID : S_HDMV/PGS
Codec ID/Info : Picture based subtitle format used on BDs/HD-DVDs
Duration : 2 h 8 min
Bit rate : 26.4 kb/s
Count of elements : 2502
Stream size : 24.2 MiB (0%)
Title : English-PGS
Language : English
Default : No
Forced : No

Text #4
ID : 11
Format : PGS
Muxing mode : zlib
Codec ID : S_HDMV/PGS
Codec ID/Info : Picture based subtitle format used on BDs/HD-DVDs
Duration : 2 h 10 min
Bit rate : 26.2 kb/s
Count of elements : 2156
Stream size : 24.5 MiB (0%)
Title : French-PGS
Language : French
Default : No
Forced : No

Text #5
ID : 12
Format : PGS
Muxing mode : zlib
Codec ID : S_HDMV/PGS
Codec ID/Info : Picture based subtitle format used on BDs/HD-DVDs
Duration : 2 h 9 min
Bit rate : 20.9 kb/s
Count of elements : 2088
Stream size : 19.4 MiB (0%)
Title : Spanish-PGS
Language : Spanish
Default : No
Forced : No

Text #6
ID : 13
Format : PGS
Muxing mode : zlib
Codec ID : S_HDMV/PGS
Codec ID/Info : Picture based subtitle format used on BDs/HD-DVDs
Duration : 2 h 10 min
Bit rate : 16.7 kb/s
Count of elements : 2093
Stream size : 15.6 MiB (0%)
Title : Japanese-PGS
Language : Japanese
Default : No
Forced : No

Text #7
ID : 14
Format : PGS
Muxing mode : zlib
Codec ID : S_HDMV/PGS
Codec ID/Info : Picture based subtitle format used on BDs/HD-DVDs
Duration : 2 h 10 min
Bit rate : 20.9 kb/s
Count of elements : 2104
Stream size : 19.5 MiB (0%)
Title : Portuguese-PGS
Language : Portuguese
Default : No
Forced : No

Text #8
ID : 15
Format : PGS
Muxing mode : zlib
Codec ID : S_HDMV/PGS
Codec ID/Info : Picture based subtitle format used on BDs/HD-DVDs
Duration : 2 h 12 min
Bit rate : 38.3 kb/s
Count of elements : 2902
Stream size : 36.3 MiB (0%)
Title : English-COMMENTARY-PGS
Language : English
Default : No
Forced : No

Text #9
ID : 16
Format : PGS
Muxing mode : zlib
Codec ID : S_HDMV/PGS
Codec ID/Info : Picture based subtitle format used on BDs/HD-DVDs
Duration : 2 h 12 min
Bit rate : 18.2 kb/s
Count of elements : 1286
Stream size : 17.3 MiB (0%)
Title : Japanese-COMMENTARY-PGS
Language : Japanese
Default : No
Forced : No

Text #10
ID : 17
Format : PGS
Muxing mode : zlib
Codec ID : S_HDMV/PGS
Codec ID/Info : Picture based subtitle format used on BDs/HD-DVDs
Duration : 2 h 10 min
Bit rate : 1 118 b/s
Count of elements : 98
Stream size : 1.05 MiB (0%)
Title : French-FORCED-PGS
Language : French
Default : No
Forced : No

Text #11
ID : 18
Format : PGS
Muxing mode : zlib
Codec ID : S_HDMV/PGS
Codec ID/Info : Picture based subtitle format used on BDs/HD-DVDs
Duration : 1 h 48 min
Bit rate : 88 b/s
Count of elements : 8
Stream size : 70.4 KiB (0%)
Title : Spanish-FORCED-PGS
Language : Spanish
Default : No
Forced : No

Text #12
ID : 19
Format : PGS
Muxing mode : zlib
Codec ID : S_HDMV/PGS
Codec ID/Info : Picture based subtitle format used on BDs/HD-DVDs
Duration : 2 h 7 min
Bit rate : 356 b/s
Count of elements : 38
Stream size : 334 KiB (0%)
Title : Japanese-FORCED-PGS
Language : Japanese
Default : No
Forced : No

Text #13
ID : 20
Format : PGS
Muxing mode : zlib
Codec ID : S_HDMV/PGS
Codec ID/Info : Picture based subtitle format used on BDs/HD-DVDs
Duration : 2 h 9 min
Bit rate : 621 b/s
Count of elements : 60
Stream size : 591 KiB (0%)
Title : Portuguese-FORCED-PGS
Language : Portuguese
Default : No
Forced : No

Menu
00:00:00.000 : en:Chapter 01
00:04:20.134 : en:Chapter 02
00:11:21.514 : en:Chapter 03
00:13:55.125 : en:Chapter 04
00:17:24.209 : en:Chapter 05
00:20:12.794 : en:Chapter 06
00:22:50.452 : en:Chapter 07
00:29:16.713 : en:Chapter 08
00:32:37.664 : en:Chapter 09
00:37:02.970 : en:Chapter 10
00:39:24.779 : en:Chapter 11
00:45:12.543 : en:Chapter 12
00:49:00.729 : en:Chapter 13
00:54:11.122 : en:Chapter 14
00:57:39.664 : en:Chapter 15
00:59:53.965 : en:Chapter 16
01:11:14.687 : en:Chapter 17
01:16:10.190 : en:Chapter 18
01:19:14.249 : en:Chapter 19
01:24:54.547 : en:Chapter 20
01:27:20.485 : en:Chapter 21
01:32:04.101 : en:Chapter 22
01:36:14.518 : en:Chapter 23
01:41:42.137 : en:Chapter 24
01:47:10.340 : en:Chapter 25
01:49:48.707 : en:Chapter 26
01:55:36.888 : en:Chapter 27
02:02:55.743 : en:Chapter 28
02:07:34.146 : en:Chapter 29
02:08:31.078 : en:Chapter 30
02:11:06.817 : en:Chapter 31
02:12:41.453 : en:Chapter 32

上传的附件:
最新回复 (0)
返回
发新帖