[美国][剧情][埃及艳后][1080p.BluRay.x264.DTS/9.21 GB][英语英文] 更早 欧美 爱情 剧情 战争 历史 1080p

mfxz 7天前 103

导演: 塞西尔·B·戴米尔

编剧: 文森特·劳伦斯 / 瓦尔德马·扬

主演: 克劳黛·考尔白 / 华伦·威廉 / 亨利·威尔克松

类型: 剧情 / 爱情 / 历史 / 战争

制片国家/地区: 美国

语言: 英语

上映日期: 1934-10-05

片长: 100 分钟

又名: 一代艳后 / 倾国倾城 / 倾国妖后

IMDb链接: tt0024991


埃及艳后的剧情简介 · · · · · ·

  凯撒(华伦·威廉 Warren William 饰)率军占领埃及后,邂逅了美丽的克莉巴特拉(克劳黛·考尔白 Claudette Colbert 饰),两人坠入了爱河,凯撒带着克莉巴特拉来到了丹德拉,在那里,人们将克莉巴特拉称为女王。很快,克莉巴特拉为凯撒生下了一个可爱的儿子,之后两人前往罗马,在那里,克莉巴特拉以其美艳不可方物的外貌获得了臣民们的拥戴,一时之间至高无上的地位不可撼动。 

  不幸的是,凯撒的遇刺身亡让克莉巴特拉的境遇急转直下。凯撒的继承人安东尼(亨利·威尔克松 Henry Wilcoxon 饰)一直倾慕于克莉巴特拉的美貌,甚至不惜将大片疆土送给她,最终两人不顾举国的反对步入婚姻殿堂因此而引发了战争,安东尼在战争中败北自尽,新的执政者屋大维决定处死祸国殃民的克莉巴特拉。


埃及艳后 Cleopatra 获奖情况

第7届奥斯卡金像奖  (1935)

最佳影片(提名) 

最佳助理导演(提名) Cullen Tate

最佳摄影 Victor Milner

最佳剪辑(提名) 安妮·鲍切恩斯

最佳录音(提名) Franklin Hansen





Video
ID : 1
Format : AVC
Format/Info : Advanced Video Codec
Format profile : High@L4.1
Format settings : CABAC / 4 Ref Frames
Format settings, CABAC : Yes
Format settings, ReFrames : 4 frames
Codec ID : V_MPEG4/ISO/AVC
Duration : 1 h 41 min
Bit rate : 11.5 Mb/s
Width : 1 464 pixels
Height : 1 080 pixels
Display aspect ratio : 4:3
Frame rate mode : Constant
Frame rate : 23.976 (24000/1001) FPS
Color space : YUV
Chroma subsampling : 4:2:0
Bit depth : 8 bits
Scan type : Progressive
Bits/(Pixel*Frame) : 0.303
Stream size : 8.14 GiB (88%)
Title : Cleopatra.1934.1080p.BluRay.x264.DTS-FGT
Writing library : x264 core 148 r2795M aaa9aa8
Encoding settings : cabac=1 / ref=4 / deblock=1:-2:-2 / analyse=0x3:0x113 / me=umh / subme=9 / psy=1 / psy_rd=1.00:0.15 / mixed_ref=1 / me_range=16 / chroma_me=1 / trellis=2 / 8x8dct=1 / cqm=0 / deadzone=21,11 / fast_pskip=1 / chroma_qp_offset=-3 / threads=24 / lookahead_threads=3 / sliced_threads=0 / nr=0 / decimate=1 / interlaced=0 / bluray_compat=0 / constrained_intra=0 / bframes=3 / b_pyramid=2 / b_adapt=1 / b_bias=0 / direct=3 / weightb=1 / open_gop=0 / weightp=2 / keyint=250 / keyint_min=25 / scenecut=40 / intra_refresh=0 / rc_lookahead=50 / rc=2pass / mbtree=1 / bitrate=11500 / ratetol=1.0 / qcomp=0.60 / qpmin=0 / qpmax=69 / qpstep=4 / cplxblur=20.0 / qblur=0.5 / vbv_maxrate=31250 / vbv_bufsize=31250 / nal_hrd=none / filler=0 / ip_ratio=1.40 / aq=1:1.00
Language : English
Default : Yes
Forced : No

Audio
ID : 2
Format : DTS
Format/Info : Digital Theater Systems
Codec ID : A_DTS
Duration : 1 h 41 min
Bit rate mode : Constant
Bit rate : 1 509 kb/s
Channel(s) : 2 channels
Channel layout : L R
Sampling rate : 48.0 kHz
Frame rate : 93.750 FPS (512 SPF)
Bit depth : 16 bits
Compression mode : Lossy
Stream size : 1.07 GiB (12%)
Title : Cleopatra.1934.1080p.BluRay.x264.DTS-FGT
Language : English
Default : Yes
Forced : No

Text
ID : 3
Format : UTF-8
Codec ID : S_TEXT/UTF8
Codec ID/Info : UTF-8 Plain Text
Duration : 1 h 34 min
Bit rate : 53 b/s
Count of elements : 1090
Stream size : 37.4 KiB (0%)
Language : English
Default : Yes
Forced : No

Menu
00:00:00.000 : en:Chapter 1
00:02:47.167 : en:Chapter 2
00:06:42.152 : en:Chapter 3
00:15:17.542 : en:Chapter 4
00:20:34.525 : en:Chapter 5
00:26:22.706 : en:Chapter 6
00:29:41.196 : en:Chapter 7
00:41:44.752 : en:Chapter 8
01:02:54.521 : en:Chapter 9
01:11:14.145 : en:Chapter 10
01:23:23.248 : en:Chapter 11
01:27:19.985 : en:Chapter 12
01:33:40.156 : en:Chapter 13

上传的附件:
最新回复 (0)
返回
发新帖