[多国][爱情][色|戒 / 色·戒 / 色,戒][UNRATED.1080p.BluRay.x264/10.91 GB][国语英文] 00年代 欧美 华语 合拍 爱情 1080p

mfxz 7天前 163

导演: 李安

编剧: 王蕙玲 / 詹姆斯·夏慕斯 / 张爱玲

主演: 梁朝伟 / 汤唯 / 陈冲 / 王力宏 / 庹宗华

类型: 剧情 / 爱情 / 情色

制片国家/地区: 台湾 / 中国大陆 / 美国 / 香港

语言: 汉语普通话 / 上海话 / 英语 / 粤语 / 日语 / 印地语

上映日期: 2007-11-01(中国大陆) / 2007-08-30(威尼斯电影节) / 2007-09-24(台湾) / 2007-09-26(香港) / 2007-10-26(美国)

片长: 158分钟 / 145分钟(中国大陆)

又名: 色|戒 / 色·戒 / 色戒 / Lust, Caution

IMDb链接: tt0808357


色,戒的剧情简介 · · · · · ·

  本是岭南大学学生的王佳芝(汤唯 饰)因战争辗转到了香港读书,她在香港大学加入了爱国青年邝裕民(王力宏 饰)组织的话剧组,他们主演的爱国话剧更激起了他们的爱国情操。当邝裕民得知汪伪政府的特务头子易先生(梁朝伟 饰)正在香港的时候,他们便密谋要刺杀易先生。化名“麦太太”的王佳芝很快得到了易太太(陈冲 饰)的信任与喜爱,同时美丽的“麦太太”也吸引了易先生的眼球,正当事情进行得如火如荼之际,易先生突然要回到上海去。 

  此后王佳芝一直生活在上海,没想到重遇了邝裕民。当得知刺杀行动还没结束时,王佳芝再次成为了特务,再次以“麦太太”的身份出现在易先生的面前。 

  重逢后的二人关系进一步发展,此时的易先生因爱上了王佳芝而对她毫无忌讳,王佳芝的内心也变得起伏不定。刺杀行动进行正顺利,但当易先生送给王佳芝璀璨钻戒表达爱意时,王佳芝做出了惊人的决定……


色,戒 获奖情况

第64届威尼斯电影节  (2007)

金狮奖 李安

金奥赛拉奖 最佳摄影 罗德里戈·普列托

第65届金球奖  (2008)

电影类 最佳外语片(提名) 

第44届台北金马影展  (2007)

金马奖 最佳剧情片 

金马奖 最佳导演 李安

金马奖 最佳男主角 梁朝伟

金马奖 最佳女主角(提名) 汤唯

金马奖 最佳改编剧本 詹姆斯·夏慕斯 / 王蕙玲

金马奖 最佳新演员 汤唯

金马奖 最佳摄影(提名) 罗德里戈·普列托

金马奖 最佳美术设计(提名) 朴若木

金马奖 最佳造型设计 朴若木 / 吕凤珊

金马奖 最佳原创配乐 亚历山大·德斯普拉

金马奖 最佳剪辑(提名) 蒂姆·斯奎尔斯

第27届香港电影金像奖  (2008)

最佳亚洲电影 

第61届英国电影学院奖  (2008)

电影奖 最佳非英语片(提名) 詹姆斯·夏慕斯 / 李安 / 江志强

电影奖 最佳服装设计(提名) 朴若木

第32届日本电影学院奖  (2009)

最佳外语片(提名) 

第2届亚洲电影大奖  (2008)

最佳电影(提名) 

最佳导演(提名) 李安

最佳男主角 梁朝伟

最佳女主角(提名) 汤唯

最佳编剧(提名) 詹姆斯·夏慕斯 / 王蕙玲

最佳原创音乐(提名) 亚历山大·德斯普拉

第8届华语电影传媒大奖  (2008)

最佳电影(提名) 

最佳导演(提名) 李安

最佳男主角(提名) 梁朝伟

最佳女主角(提名) 汤唯

最佳新演员 汤唯




Video
ID : 1
Format : AVC
Format/Info : Advanced Video Codec
Format profile : High@L4.1
Format settings : CABAC / 4 Ref Frames
Format settings, CABAC : Yes
Format settings, ReFrames : 4 frames
Codec ID : V_MPEG4/ISO/AVC
Duration : 2 h 38 min
Bit rate : 8 355 kb/s
Width : 1 920 pixels
Height : 1 080 pixels
Display aspect ratio : 16:9
Frame rate mode : Constant
Frame rate : 23.976 FPS
Color space : YUV
Chroma subsampling : 4:2:0
Bit depth : 8 bits
Scan type : Progressive
Bits/(Pixel*Frame) : 0.168
Stream size : 9.02 GiB (83%)
Writing library : x264 core 67 r1120M 8544346
Encoding settings : cabac=1 / ref=4 / deblock=1:-1:-1 / analyse=0x3:0x113 / me=umh / subme=7 / psy_rd=1.0:0.0 / mixed_ref=1 / me_range=16 / chroma_me=1 / trellis=2 / 8x8dct=1 / cqm=0 / deadzone=21,11 / chroma_qp_offset=-2 / threads=6 / nr=0 / decimate=1 / mbaff=0 / bframes=3 / b_pyramid=0 / b_adapt=2 / b_bias=0 / direct=3 / wpredb=1 / keyint=250 / keyint_min=25 / scenecut=40 / rc=2pass / bitrate=8355 / ratetol=1.0 / qcomp=0.60 / qpmin=10 / qpmax=51 / qpstep=4 / cplxblur=20.0 / qblur=0.5 / vbv_maxrate=50000 / vbv_bufsize=50000 / ip_ratio=1.40 / pb_ratio=1.30 / aq=1:1.00
Language : Chinese
Default : Yes
Forced : No

Audio
ID : 2
Format : DTS
Format/Info : Digital Theater Systems
Codec ID : A_DTS
Duration : 2 h 38 min
Bit rate mode : Constant
Bit rate : 1 509 kb/s
Channel(s) : 6 channels
Channel positions : Front: L C R, Side: L R, LFE
Sampling rate : 48.0 kHz
Frame rate : 93.750 FPS (512 SPF)
Bit depth : 16 bits
Compression mode : Lossy
Stream size : 1.67 GiB (15%)
Language : Chinese
Default : Yes
Forced : No

Text
ID : 3
Format : UTF-8
Codec ID : S_TEXT/UTF8
Codec ID/Info : UTF-8 Plain Text
Language : English
Default : Yes
Forced : No

上传的附件:
最新回复 (0)
返回
发新帖