[大陆/香港][古装][江山美人][1080p.BluRay.x264/7.95 GB][国语英文] 00年代 华语 动作 爱情 战争 1080p

mfxz 5天前 71

导演: 程小东

编剧: 阮世生 / 张炭

主演: 黎明 / 陈慧琳 / 甄子丹 / 郭晓东 / 寇振海

类型: 剧情 / 动作 / 爱情 / 战争

制片国家/地区: 中国大陆 / 香港

语言: 粤语

上映日期: 2008-02-09(中国大陆)

片长: 99分钟

又名: 江山·美人 / An Empress and the Warriors

IMDb链接: tt1186803


江山美人的剧情简介 · · · · · ·

  燕赵大战,燕王受重伤,大将慕容雪虎(甄子丹 饰)临危受命。燕帅(郭晓冬 饰)因妒生恨,弑君谋位。大王惨死,举国悲恸,根据大王遗愿,欲传皇位于慕容将军,而燕帅多有阻挠。情急之下,大王之位只能传于手持大燕传国之宝——飞燕刃的公主燕飞儿(陈慧琳 饰),慕容将军尽忠职守,全力训练燕飞儿。不料公主离奇失踪,飞虎将军难辞其咎。燕飞儿被燕帅派出的杀手追杀并身中毒箭,幸被隐士段兰泉(黎明 饰)所救,一时难以回营。此时燕帅排除异己,欲自立为王。燕飞儿不久后回营却正值赵兵进犯之时,而燕帅为求王印,按兵不动。前有劲敌压境,后有逆臣虎视眈眈,公主带领众将生擒赵王父子,却放他们返回赵国。燕帅称王不成反受到惩罚,燕飞儿登基在即却放弃王位,传位于慕容雪虎后返回山林找段兰泉过起神仙眷侣般的生活。燕帅并没有善罢甘休,又一场血雨腥风的笼罩在风雨飘摇的大燕国上空…… 





Video
ID : 1
Format : AVC
Format/Info : Advanced Video Codec
Format profile : High@L4.1
Format settings : CABAC / 5 Ref Frames
Format settings, CABAC : Yes
Format settings, ReFrames : 5 frames
Codec ID : V_MPEG4/ISO/AVC
Duration : 1 h 34 min
Bit rate : 11.6 Mb/s
Width : 1 920 pixels
Height : 832 pixels
Display aspect ratio : 2.35:1
Frame rate mode : Constant
Frame rate : 19.200 FPS
Color space : YUV
Chroma subsampling : 4:2:0
Bit depth : 8 bits
Scan type : Progressive
Bits/(Pixel*Frame) : 0.377
Stream size : 7.49 GiB (94%)
Writing library : x264 core 67 r1145M d2e1e1c
Encoding settings : cabac=1 / ref=5 / deblock=1:0:0 / analyse=0x3:0x133 / me=umh / subme=7 / psy_rd=1.0:0.0 / mixed_ref=1 / me_range=16 / chroma_me=1 / trellis=1 / 8x8dct=1 / cqm=0 / deadzone=21,11 / chroma_qp_offset=-2 / threads=6 / nr=0 / decimate=1 / mbaff=0 / bframes=3 / b_pyramid=1 / b_adapt=1 / b_bias=0 / direct=1 / wpredb=1 / keyint=250 / keyint_min=25 / scenecut=40 / rc=2pass / bitrate=11576 / ratetol=1.0 / qcomp=0.60 / qpmin=10 / qpmax=51 / qpstep=4 / cplxblur=20.0 / qblur=0.5 / ip_ratio=1.40 / pb_ratio=1.30 / aq=1:1.00
Default : Yes
Forced : No

Audio
ID : 2
Format : AC-3
Format/Info : Audio Coding 3
Commercial name : Dolby Digital
Codec ID : A_AC3
Duration : 1 h 34 min
Bit rate mode : Constant
Bit rate : 448 kb/s
Channel(s) : 6 channels
Channel layout : L R C LFE Ls Rs
Sampling rate : 48.0 kHz
Frame rate : 31.250 FPS (1536 SPF)
Bit depth : 16 bits
Compression mode : Lossy
Stream size : 303 MiB (4%)
Language : Chinese
Service kind : Complete Main
Default : Yes
Forced : No

Text
ID : 3
Format : UTF-8
Codec ID : S_TEXT/UTF8
Codec ID/Info : UTF-8 Plain Text
Language : English
Default : Yes
Forced : No

上传的附件:
最新回复 (0)
返回
发新帖