[韩国][悬疑][金色梦乡][1080p.BluRay.x264.DTS/9.46 GB][韩语英文] 2018 韩国 剧情 悬疑 1080p

mfxz 5天前 24

导演: 卢东硕

编剧: 李海准 / 卢东硕 / 曹义锡‍ / 伊坂幸太郎

主演: 姜栋元 / 韩孝周 / 金义城 / 金成钧 / 金大明

类型: 剧情 / 悬疑

制片国家/地区: 韩国

语言: 韩语

上映日期: 2018-02-14(韩国)

片长: 109分钟

又名: 金色梦乡韩国版 / 宅配男逃亡曲(台) / 暗杀速递(港) / Golden Slumber

IMDb链接: tt6485776


金色梦乡的剧情简介 · · · · · ·

  根据日本作家伊坂幸太郎的同名原著改编,讲述平凡的快递司机金建宇陷入权利斗争,莫名背上暗杀新总统候选人罪名后一路逃亡的故事......




Video
ID : 1
Format : AVC
Format/Info : Advanced Video Codec
Format profile : High@L4.1
Format settings : CABAC / 4 Ref Frames
Format settings, CABAC : Yes
Format settings, ReFrames : 4 frames
Codec ID : V_MPEG4/ISO/AVC
Duration : 1 h 48 min
Bit rate : 10.9 Mb/s
Width : 1 920 pixels
Height : 804 pixels
Display aspect ratio : 2.40:1
Frame rate mode : Constant
Frame rate : 23.976 (24000/1001) FPS
Color space : YUV
Chroma subsampling : 4:2:0
Bit depth : 8 bits
Scan type : Progressive
Bits/(Pixel*Frame) : 0.296
Stream size : 8.31 GiB (88%)
Writing library : x264 core 157 r2970+47 cae74a0 t_mod_New [0-bit@all X86]
Encoding settings : cabac=1 / ref=4 / deblock=1:-3:-3 / analyse=0x3:0x133 / me=umh / subme=11 / psy=1 / fade_compensate=0.00 / psy_rd=0.95:0.10 / mixed_ref=1 / me_range=48 / chroma_me=1 / trellis=2 / 8x8dct=1 / cqm=0 / deadzone=21,11 / fast_pskip=0 / chroma_qp_offset=-4 / threads=12 / lookahead_threads=2 / sliced_threads=0 / nr=0 / decimate=1 / interlaced=0 / bluray_compat=0 / constrained_intra=0 / fgo=0 / bframes=8 / b_pyramid=2 / b_adapt=2 / b_bias=0 / direct=3 / weightb=1 / open_gop=0 / weightp=2 / keyint=250 / keyint_min=23 / scenecut=40 / intra_refresh=0 / rc_lookahead=60 / rc=crf / mbtree=0 / crf=18.0000 / qcomp=0.70 / qpmin=0:0:0 / qpmax=69:69:69 / qpstep=4 / vbv_maxrate=35000 / vbv_bufsize=35000 / crf_max=0.0 / nal_hrd=none / filler=0 / ip_ratio=1.40 / pb_ratio=1.30 / aq=3:1.00 / aq-sensitivity=10.00 / aq-factor=1.00:1.00:1.00 / aq2=0 / aq3=0
Language : Korean
Default : Yes
Forced : No

Audio
ID : 2
Format : DTS
Format/Info : Digital Theater Systems
Codec ID : A_DTS
Duration : 1 h 48 min
Bit rate mode : Constant
Bit rate : 1 509 kb/s
Channel(s) : 6 channels
Channel layout : C L R Ls Rs LFE
Sampling rate : 48.0 kHz
Frame rate : 93.750 FPS (512 SPF)
Bit depth : 16 bits
Compression mode : Lossy
Stream size : 1.15 GiB (12%)
Language : Korean
Default : Yes
Forced : No

Text
ID : 3
Format : UTF-8
Codec ID : S_TEXT/UTF8
Codec ID/Info : UTF-8 Plain Text
Duration : 1 h 42 min
Bit rate : 41 b/s
Count of elements : 1154
Stream size : 30.8 KiB (0%)
Language : English
Default : Yes
Forced : No



上传的附件:
最新回复 (0)
返回
发新帖