[香港][爱情][原谅他77次][1080p.BluRay.x264/6.85 GB][粤语简繁中字] 2017 华语 爱情 剧情 1080p

mfxz 6天前 55

导演: 邱礼涛

编剧: 李敏

主演: 蔡卓妍 / 周柏豪 / 卫诗雅 / 钟欣潼 / 卢巧音

类型: 爱情

制片国家/地区: 香港 / 中国大陆

语言: 粤语

上映日期: 2017-06-23(中国大陆) / 2017-03-10(大阪亚洲电影节) / 2017-06-15(香港)

片长: 97分钟

又名: 77 Heartbreaks

IMDb链接: tt6608132


原谅他77次的剧情简介 · · · · · ·

  Eva(蔡卓妍 饰) 与Adam(周柏豪 饰)拍拖十年多,却因一件小事突然分手。莫名被分手的Adam酒后与学生Mandy( 卫诗雅 饰)发生了关系。可随后Mandy却在Adam家中意外发现了一本Eva所写的77次心碎记录,记事簿里Eva一次次的被伤害纪录历历在目⋯Adam愧疚不已,鼓起勇气在众目睽睽之前向Eva道歉。岂料,Eva却在Adam家中发现了Mandy的物品⋯到底她可否原谅Adam第78次呢?




Video
ID : 4
Format : AVC
Format/Info : Advanced Video Codec
Format profile : High@L4.1
Format settings : CABAC / 4 Ref Frames
Format settings, CABAC : Yes
Format settings, ReFrames : 4 frames
Codec ID : V_MPEG4/ISO/AVC
Duration : 1 h 36 min
Bit rate : 9 481 kb/s
Width : 1 920 pixels
Height : 816 pixels
Display aspect ratio : 2.35:1
Frame rate mode : Constant
Frame rate : 24.000 FPS
Color space : YUV
Chroma subsampling : 4:2:0
Bit depth : 8 bits
Scan type : Progressive
Bits/(Pixel*Frame) : 0.252
Stream size : 6.39 GiB (93%)
Writing library : x264 core 157 r2935 545de2f
Encoding settings : cabac=1 / ref=4 / deblock=1:-3:-3 / analyse=0x3:0x133 / me=umh / subme=10 / psy=1 / psy_rd=1.00:0.00 / mixed_ref=1 / me_range=32 / chroma_me=1 / trellis=2 / 8x8dct=1 / cqm=0 / deadzone=21,11 / fast_pskip=0 / chroma_qp_offset=-2 / threads=25 / lookahead_threads=6 / sliced_threads=0 / nr=0 / decimate=0 / interlaced=0 / bluray_compat=0 / constrained_intra=0 / bframes=16 / b_pyramid=2 / b_adapt=2 / b_bias=0 / direct=3 / weightb=1 / open_gop=0 / weightp=2 / keyint=240 / keyint_min=24 / scenecut=40 / intra_refresh=0 / rc_lookahead=60 / rc=crf / mbtree=0 / crf=18.5 / qcomp=0.60 / qpmin=0 / qpmax=69 / qpstep=4 / vbv_maxrate=62500 / vbv_bufsize=78125 / crf_max=0.0 / nal_hrd=none / filler=0 / ip_ratio=1.40 / pb_ratio=1.30 / aq=2:1.00
Default : Yes
Forced : No
Color range : Limited
Color primaries : BT.709
Transfer characteristics : BT.709
Matrix coefficients : BT.709

Audio
ID : 1
Format : AC-3
Format/Info : Audio Coding 3
Commercial name : Dolby Digital
Codec ID : A_AC3
Duration : 1 h 36 min
Bit rate mode : Constant
Bit rate : 640 kb/s
Channel(s) : 6 channels
Channel layout : L R C LFE Ls Rs
Sampling rate : 48.0 kHz
Frame rate : 31.250 FPS (1536 SPF)
Bit depth : 16 bits
Compression mode : Lossy
Stream size : 442 MiB (6%)
Language : Chinese
Service kind : Complete Main
Default : Yes
Forced : No

Text #1
ID : 2
Format : PGS
Muxing mode : zlib
Codec ID : S_HDMV/PGS
Codec ID/Info : Picture based subtitle format used on BDs/HD-DVDs
Duration : 1 h 30 min
Bit rate : 35.5 kb/s
Count of elements : 2662
Stream size : 22.9 MiB (0%)
Language : Chinese
Default : No
Forced : No

Text #2
ID : 3
Format : PGS
Muxing mode : zlib
Codec ID : S_HDMV/PGS
Codec ID/Info : Picture based subtitle format used on BDs/HD-DVDs
Duration : 1 h 30 min
Bit rate : 35.6 kb/s
Count of elements : 2662
Stream size : 22.9 MiB (0%)
Language : Chinese
Default : No
Forced : No

Text #3
ID : 5
Format : UTF-8
Codec ID : S_TEXT/UTF8
Codec ID/Info : UTF-8 Plain Text
Duration : 1 h 30 min
Bit rate : 62 b/s
Count of elements : 1471
Stream size : 41.3 KiB (0%)
Language : English
Default : Yes
Forced : No

Menu
00:00:00.000 : en:Chapter 1
00:07:06.708 : en:Chapter 2
00:14:50.208 : en:Chapter 3
00:21:24.000 : en:Chapter 4
00:29:47.417 : en:Chapter 5
00:37:36.917 : en:Chapter 6
00:43:38.167 : en:Chapter 7
00:50:42.292 : en:Chapter 8
00:59:48.583 : en:Chapter 9
01:09:19.917 : en:Chapter 10
01:18:09.833 : en:Chapter 11
01:26:58.833 : en:Chapter 12

上传的附件:
最新回复 (0)
返回
发新帖